Wednesday, January 14, 2015

Seventh Son (2015) 720p HDCAM FIRST ENG

12:24 AM By rexelens , , , No comments





Screenshot









Video

ID : 1
Format : MPEG-4 Visual
Format profile : Simple@L3
Format settings, BVOP : No
Format settings, QPel : No
Format settings, GMC : No warppoints
Format settings, Matrix : Default (H.263)
Codec ID : 20
Duration : 1h 33mn
Bit rate : 2 392 Kbps
Width : 1 280 pixels
Height : 536 pixels
Display aspect ratio : 2.40:1
Frame rate mode : Variable
Frame rate : 59.940 fps
Minimum frame rate : 59.916 fps
Maximum frame rate : 60.157 fps
Color space : YUV
Chroma subsampling : 4:2:0
Bit depth : 8 bits
Scan type : Progressive
Compression mode : Lossy
Bits/(Pixel*Frame) : 0.058
Stream size : 1.56 GiB (95%)
Writing library : ZJMedia MPEG Encoder

Audio

ID : 2
Format : AAC
Format/Info : Advanced Audio Codec
Format profile : LC
Codec ID : 40
Duration : 1h 33mn
Bit rate mode : Variable
Bit rate : 128 Kbps
Channel(s) : 2 channels
Channel positions : Front: L R
Sampling rate : 48.0 KHz
Compression mode : Lossy
Stream size : 85.2 MiB (5%)



Download Link:


Mirror Link:


0 comments:

Post a Comment