Monday, January 12, 2015

Hercules Reborn (2014) 720p BRRip

7:04 AM By rexelens , , , No comments





Screenshot












Genres: Action , Adventure 
Runtime: 95
Year: 2014

Format : AVI
Format/Info : Audio Video Interleave
Format profile : OpenDML
File size : 2.94 GiB
Duration : 1h 34mn
Overall bit rate : 4 439 Kbps
Movie name : RARBG.COM - Hercules.Reborn.2014.720p.BRRip.XviD.AC3-RARBG
Writing library : VirtualDub build 35491/release
Comment : RARBG.COM - Hercules.Reborn.2014.720p.BRRip.XviD.AC3-RARBG

Video
ID : 0
Format : MPEG-4 Visual
Format profile : Simple@L5
Format settings, BVOP : No
Format settings, QPel : No
Format settings, GMC : No warppoints
Format settings, Matrix : Default (H.263)
Codec ID : XVID
Codec ID/Hint : XviD
Duration : 1h 34mn
Bit rate : 3 788 Kbps
Width : 1 280 pixels
Height : 720 pixels
Display aspect ratio : 16:9
Frame rate : 23.976 fps
Color space : YUV
Chroma subsampling : 4:2:0
Bit depth : 8 bits
Scan type : Progressive
Compression mode : Lossy
Bits/(Pixel*Frame) : 0.171
Stream size : 2.51 GiB (85%)
Writing library : Lavc55.61.100

Audio
ID : 1
Format : AC-3
Format/Info : Audio Coding 3
Mode extension : CM (complete main)
Format settings, Endianness : Big
Codec ID : 2000
Duration : 1h 34mn
Bit rate mode : Constant
Bit rate : 640 Kbps
Channel(s) : 6 channels
Channel positions : Front: L C R, Side: L R, LFE
Sampling rate : 48.0 KHz
Bit depth : 16 bits
Compression mode : Lossy
Stream size : 434 MiB (14%)
Alignment : Aligned on interleaves
Interleave, duration : 42 ms (1.00 video frame)
Interleave, preload duration : 512 ms


Actors: John Hennigan , Christian Oliver , Christina Ulfsparre , James Duval , Dylan Vox , Ben Chagra Khalid , Alistair A. Duff , Foued Mansour , Jeremy M. Inman , Jennifer Marie Paul , Marcus Shirock , Aurelie Armelle Simone Chatellier , Rim Touassi , Yassine Amer , Youness Lahlafi



Summary :

When a young man's bride is kidnapped by an evil king| he turns to Hercules for help. The fallen hero has been living in exile| banished for killing his family but the young man's courage inspires Hercules. Together| they fight to rescue the bride and reclaim the honor of Hercules. 






Download Link:

0 comments:

Post a Comment