Tuesday, January 20, 2015

My Little Bossings (2013) DivX WebRip





Screenshot





Format : AVI
Format/Info : Audio Video Interleave
File size : 1 017 MiB
Duration : 1h 46mn
Overall bit rate : 1 341 Kbps
Writing application : Lavf51.12.1

Video
ID : 0
Format : MPEG-4 Visual
Codec ID : DIV3
Codec ID/Hint : DivX 3 Low
Duration : 1h 46mn
Bit rate : 1 200 Kbps
Width : 512 pixels
Height : 384 pixels
Display aspect ratio : 4:3
Frame rate : 29.970 fps
Color space : YUV
Chroma subsampling : 4:2:0
Bit depth : 8 bits
Compression mode : Lossy
Bits/(Pixel*Frame) : 0.204
Stream size : 910 MiB (89%)

Audio
ID : 1
Format : MPEG Audio
Format version : Version 1
Format profile : Layer 3
Mode : Joint stereo
Mode extension : MS Stereo
Codec ID : 55
Codec ID/Hint : MP3
Duration : 1h 45mn
Bit rate mode : Constant
Bit rate : 128 Kbps
Channel(s) : 2 channels
Sampling rate : 44.1 KHz
Compression mode : Lossy
Stream size : 97.0 MiB (10%)
Alignment : Aligned on interleaves
Interleave, duration : 26 ms (0.78 video frame)


CAST

Kris Aquino
Vic Sotto
Ryzza Mae Dizon
Aiza Seguerra
Ice
Oyo Boy Sotto
Jose Manalo
Baby James Yap

Director: Marlon Rivera



Summary:

Torky (Vic Sotto) is a bookkeeper working for Baba (Kris Aquino) a millionaire cash management specialist. Because of some conflict in her business that puts her life in danger, Baba entrusts the safety of her son Justin (Bimby Aquino-Yap) to Torky who takes him home to meet his daughter Ice (Aiza Seguerra) and Ching (Ryzza Mae Dizon) the street urchin that the latter took under her wing. Given that Justin is not particularly fond of Torky, how all four of them would get along under one roof becomes the focus of the story.

Userscloud



Chayfile


Tusfile



My Little Bossings (2013) smaller size (1GB)


Userscloud



Chayfile


Tusfile


0 comments:

Post a Comment