Saturday, January 24, 2015

Dilim (2014) CamRip





Screenshot











Format : MPEG-4
FILE SIZE: 1.01GB
Format profile : Base Media
Codec ID : isom
Duration : 1h 33mn
Overall bit rate : 1 542 Kbps
Movie name : Dilim (2014) Camrip [buhaypirata]
Genre : Horror
Writing application : Lavf55.19.104

VIDEO
ID : 1
Format : MPEG-4 Visual
Format profile : Simple@L3
Format settings, BVOP : No
Format settings, QPel : No
Format settings, GMC : No warppoints
Format settings, Matrix : Default (H.263)
Codec ID : 20
Duration : 1h 33mn
Duration_LastFrame : -17ms
Bit rate mode : Variable
Bit rate : 1 407 Kbps
Maximum bit rate : 5 000 Kbps
Width : 640 pixels
Height : 480 pixels
Display aspect ratio : 16:9
Frame rate mode : Constant
Frame rate : 29.970 fps
Color space : YUV
Chroma subsampling : 4:2:0
Bit depth : 8 bits
Scan type : Progressive
Compression mode : Lossy
Bits/(Pixel*Frame) : 0.153
Stream size : 943 MiB (91%)
Writing library : Lavc55.39.100

AUDIO
ID : 2
Format : AAC
Format/Info : Advanced Audio Codec
Format profile : LC
Codec ID : 40
Duration : 1h 33mn
Bit rate mode : Variable
Bit rate : 128 Kbps
Maximum bit rate : 5 000 Kbps
Channel(s) : 6 channels
Channel positions : Front: L C R, Side: L R, LFE
Sampling rate : 44.1 KHz
Compression mode : Lossy
Stream size : 85.8 MiB (8%)








Userscloud



0 comments:

Post a Comment