Sunday, December 21, 2014

Power Rangers Megaforce Ultra Defenders (2014) WEB-DL XviD MP3-RARBG

1:15 AM By rexelens , , , No comments



Screenshoot




http://www.imdb.com/title/tt3512066

Format : AVI
Format/Info : Audio Video Interleave
File size : 945 MiB
Duration : 1h 34mn
Overall bit rate : 1 401 Kbps
Movie name : RARBG.COM - Power.Rangers.Megaforce.Ultra.Defenders.2014.WEB-DL.XviD.MP3-RARBG
Writing library : VirtualDub build 35491/release
Comment : RARBG.COM - Power.Rangers.Megaforce.Ultra.Defenders.2014.WEB-DL.XviD.MP3-RARBG

Video
ID : 0
Format : MPEG-4 Visual
Format profile : Simple@L5
Format settings, BVOP : No
Format settings, QPel : No
Format settings, GMC : No warppoints
Format settings, Matrix : Default (H.263)

Codec ID : XVID
Codec ID/Hint : XviD
Duration : 1h 34mn
Bit rate : 1 197 Kbps
Width : 720 pixels
Height : 404 pixels
Display aspect ratio : 16:9
Frame rate : 23.976 fps
Color space : YUV
Chroma subsampling : 4:2:0
Bit depth : 8 bits
Scan type : Progressive
Compression mode : Lossy
Bits/(Pixel*Frame) : 0.172
Stream size : 807 MiB (85%)
Writing library : Lavc55.61.100

Audio
ID : 1
Format : MPEG Audio
Format version : Version 1
Format profile : Layer 3
Mode : Joint stereo
Mode extension : MS Stereo
Codec ID : 55
Codec ID/Hint : MP3
Duration : 1h 34mn
Bit rate mode : Constant
Bit rate : 192 Kbps
Channel(s) : 2 channels
Sampling rate : 48.0 KHz
Compression mode : Lossy
Stream size : 130 MiB (14%)
Alignment : Aligned on interleaves
Interleave, duration : 24 ms (0.58 video frame)
Interleave, preload duration : 504 ms



Download Link:


Mirror Link:

0 comments:

Post a Comment